Login
Username:
Password:
Remember Me:
[Signup]
[Recover Account]
Friends
BTScene
Friendly site

Ale Torrenty Team
Friendly site

Anime RG
Friendly site

KaranPC
Friendly site

P2PDL.com
Friendly site

Free Tutorials & Courses
Friendly site
Torrent Details For "Humanity End 2009 720p BluRay H264 AAC"

Humanity End 2009 720p BluRay H264 AAC

To download this torrent, you need a BitTorrent client: Vuze or BTGuard
Download this torrent
Download using Magnet Link





Health:
Seeds: 0
Leechers: 0
Completed:
Last Checked: 13-01-2018 09:15:22

Uploader Reputation points : 160
External: Torrent




Write a Review for the Uploader:   5   Say Thanks with one good review:


Details
Name:Humanity End 2009 720p BluRay H264 AAC
Description:


http://www.imdb.com/title/tt1249453/



Video
ID                                       : 1
Format                                   : AVC
Format/Info                              : Advanced Video Codec
Format profile                           : [email protected]
Format settings, CABAC                   : Yes
Format settings, ReFrames                : 4 frames
Codec ID                                 : avc1
Codec ID/Info                            : Advanced Video Coding
Duration                                 : 2 h 0 min
Bit rate                                 : 12 00 kb/s
Width                                    : 720 pixels
Height                                   : 304 pixels
Display aspect ratio                     : 16:9
Frame rate mode                          : Constant
Color space                              : YUV
Chroma subsampling                       : 4:2:0
Scan type                                : Progressive
Bits/(Pixel*Frame)                       : 0.068
Stream size                              : 1.26 GiB (87%)
Audio
ID                                       : 2
Format                                   : AAC
Format/Info                              : Advanced Audio Codec
Format profile                           : LC
Codec ID                                 : 40
Duration                                 : 2 h 0 min
Bit rate mode                            : Constant
Channel(s)                               : 2 channels
Channel(s)_Original                      : 6 channels
Channel positions                        : Front: L C R, Side: L R, LFE
Compression mode                         : Lossy
Stream size                              : 193 MiB (13%)
Language                                 : English
Default                                  : Yes




YouTube Video:
Category:Movies
Language:English  English
Total Size:1.11 GB
Info Hash:DC1D6F723A7461B88663EF5B258F9D290DC4097A
Added By:stopertop
Date Added:13-01-2018 09:12:46
Torrent Status:Torrent Verified by TheStrength Kronos on 13th January, 2018


Ratings:Not Yet Rated (Log in to rate it)


Tracker:
udp://tracker.openbittorrent.com:80/announce

This Torrent also has backup trackers
URLSeedersLeechersCompleted
udp://tracker.openbittorrent.com:80/announce000
udp://tracker.opentrackr.org:1337/announce000
udp://glotorrents.pw:6969/announce000
udp://tracker.pubt.net:2710/announce000
udp://tracker.openbittorrent.com:80/announce000
udp://open.demonii.com:1337/announce000


File List: 



Warning! Do not Download Torrents Without a VPN!
Your IP Address is .   Location is
Your Internet Provider and Government can track your torrent Activity! Hide your IP ADDRESS with a VPN!
We strongly recommend using SpyOFF VPN to anonymize your Torrenting.It's FREE!
START YOUR FREE TRIAL NOW!


Comments
No comments still posted